Категория: Музыка
Стиль: Brutal Death Metal
Страна: Россия
Формат: Разный (указан в описании) / Other
Размер: 702.23 MB
Раздал: jared_wanted   
Оценка: Abominable Putridity — Discography (2007-2015) (Lossless)

5/5 Голоса: 8

Добавлено: 09/06/2018 23:37:31
Файлов: 35
Скачан: 43 (Взят — 74) 0 0
Сид был: 03/07/2018 04:35:01
Модерация: Проверен пользователем jared_wanted
Описание:
Audio Codec / Аудио кодек: FLAC
                                                APE In The End Of Human Existence
Rip Type / Тип рипа: image+.log+.cue
                                  tracks The Anomalies Of Artificial Origin (Remixed & Remastered)
Audio Bitrate / Битрейт аудио: 1072-1151 kbps, 44.1 kHz
Scans From The Disc / Сканы с диска: no, some covers


Albums / Альбомы:

   2007In The End Of Human Existence

Length / Продолжительность: 00:26:05
Tracklist / Треклист:
01. Intracranial Parasite
02. Entrails Full of Vermin
03. Blindfold Surgery
04. Skin Removal
05. Dissected from Within
06. Throat Fisting Abortion
07. Intestinal Putrefaction
08. Victims Stuffed with Nails
09. Sphacelated Nerves
10. In the End of Human Existence

   EAC Log:
EAC extraction logfile from 1. June 2008, 19:13 for CD
Abominable Putridity / In The End Of Human Existence

Used drive : HL-DT-STCD-RW GCE-8523B Adapter: 1 ID: 1
Read mode : Secure with NO C2, accurate stream, disable cache
Read offset correction : 6
Overread into Lead-In and Lead-Out : No

Used output format : C:Archivos de programaExact Audio CopyMAC.EXE (Monkey’s Audio Lossless Encoder)
High Lossless Compression

Other options :
Fill up missing offset samples with silence : Yes
Delete leading and trailing silent blocks : No
Native Win32 interface for Win NT & 2000

Range status and errors
Selected range
Filename C:Documents and Settingssteve harrisEscritorioCDImage.wav

Peak level 99.7 %
Range quality 99.9 %
CRC 627F8773
Copy OK

No errors occured

End of status report

   auCDtect Log:
————————

DON’T MODIFY THIS FILE

————————

PERFORMER: auCDtect Task Manager, ver. 1.6.0 RC1 build 1.6.0.1
Copyright (c) 2008-2010 y-soft. All rights reserved
http://y-soft.org

ANALYZER: auCDtect: CD records authenticity detector, version 0.8.2
Copyright (c) 2004 Oleg Berngardt. All rights reserved.
Copyright (c) 2004 Alexander Djourik. All rights reserved.

FILE: Abominable Putridity — In The End Of Human Existence.ape
Size: 213427296 Hash: A9F423D9E17DC4E6E5E57037BFE76949 Accuracy: -m0
Conclusion: CDDA 100%
Signature: 4AC3E8892C696518E411C698B82E7A24913C8631

   2011Promotional CD

Length / Продолжительность: 00:08:57
Tracklist / Треклист:
01. Remnants of the Tortured
02. Lack of Oxygen
03. The Last Communion

Guest Member:
Corey Athos (Flesh Consumed) — Vocals (backing)

   EAC Log:
Exact Audio Copy V1.0 beta 3 from 29. August 2011

EAC extraction logfile from 22. November 2011, 10:25

Abominable Putridity / Promotional CD 2011

Used drive : ASUS DRW-22B1LT Adapter: 1 ID: 1

Read mode : Secure
Utilize accurate stream : Yes
Defeat audio cache : Yes
Make use of C2 pointers : No

Read offset correction : 6
Overread into Lead-In and Lead-Out : No
Fill up missing offset samples with silence : Yes
Delete leading and trailing silent blocks : No
Null samples used in CRC calculations : Yes
Used interface : Installed external ASPI interface

Used output format : User Defined Encoder
Selected bitrate : 1024 kBit/s
Quality : Low
Add ID3 tag : Yes
Command line compressor : C:Program Files (x86)Exact Audio CopyFlacflac.exe
Additional command line options : -8 -V %source% -T «ARTIST=%albumartist%» -T «TITLE=%title%» -T «ALBUM=%albumtitle%» -T «DATE=%year%» -T «GENRE=%genre%»

TOC of the extracted CD

Track | Start | Length | Start sector | End sector
———————————————————
1 | 0:00.00 | 3:06.00 | 0 | 13949
2 | 3:06.00 | 2:39.00 | 13950 | 25874
3 | 5:45.00 | 3:12.00 | 25875 | 40274

Range status and errors

Selected range

Filename E:Rutracker.ORGияLossless GroupAbominable Putridity — Promotional CD 2011Abominable Putridity — Promotional CD 2011.wav

Peak level 99.0 %
Extraction speed 5.5 X
Range quality 100.0 %
Test CRC 3A3A973B
Copy CRC 3A3A973B
Copy OK

No errors occurred

AccurateRip summary

Track 1 not present in database
Track 2 not present in database
Track 3 not present in database

None of the tracks are present in the AccurateRip database

End of status report

—- CUETools DB Plugin V2.1.3

[CTDB TOCID: VOb1eR9juuKz1TfnOQ7QN6Fgqig-] disk not present in database, Submit result: VOb1eR9juuKz1TfnOQ7QN6Fgqig- has been uploaded

==== Log checksum 6F2FEE258D13578BE2D766E667EB80C12427E9ADC289F66EA3E863F663158219 ====

   auCDtect Log:
————————

DON’T MODIFY THIS FILE

————————

PERFORMER: auCDtect Task Manager, ver. 1.6.0 RC1 build 1.6.0.1
Copyright (c) 2008-2010 y-soft. All rights reserved
http://y-soft.org

ANALYZER: auCDtect: CD records authenticity detector, version 0.8.2
Copyright (c) 2004 Oleg Berngardt. All rights reserved.
Copyright (c) 2004 Alexander Djourik. All rights reserved.

FILE: Abominable Putridity — Promotional CD 2011.flac
Size: 77300537 Hash: 103C5CB6AB88679E50C2C735854109B9 Accuracy: -m0
Conclusion: CDDA 100%
Signature: 903D51C7EDD9C0223515B86EAD1C0D75349D830E

   2012The Anomalies Of Artificial Origin

Length / Продолжительность: 00:25:54
Tracklist / Треклист:
01. Remnants of the Tortured
02. A Massacre in the North
03. Letting Them Fall…
04. A Burial for the Abandoned
05. Lack of Oxygen
06. Wormhole Inversion
07. The Anomalies of Artificial Origin
08. The Last Communion

   EAC Log:
Exact Audio Copy V1.0 beta 3 from 29. August 2011

EAC extraction logfile from 11. February 2012, 15:06

Abominable Putridity / The Anomalies Of Artificial Origin

Used drive : TSSTcorpCDDVDW TS-L633C Adapter: 0 ID: 1

Read mode : Secure
Utilize accurate stream : Yes
Defeat audio cache : Yes
Make use of C2 pointers : No

Read offset correction : 6
Overread into Lead-In and Lead-Out : No
Fill up missing offset samples with silence : Yes
Delete leading and trailing silent blocks : No
Null samples used in CRC calculations : Yes
Used interface : Native Win32 interface for Win NT & 2000

Used output format : User Defined Encoder
Selected bitrate : 1024 kBit/s
Quality : High
Add ID3 tag : No
Command line compressor : C:Program FilesExact Audio CopyFLACFLAC.EXE
Additional command line options : -8 -V -T «ARTIST=%artist%» -T «TITLE=%title%» -T «ALBUM=%albumtitle%» -T «DATE=%year%» -T «TRACKNUMBER=%tracknr%» -T «GENRE=%genre%» -T «COMMENT=%comment%» -T «BAND=%albuminterpret%» -T «COMPOSER=%composer%» %haslyrics%—tag-from-file=LYRICS=»%lyricsfile%»%haslyrics% -T «DISCNUMBER=%cdnumber%» -T «TOTALDISCS=%totalcds%» -T «TOTALTRACKS=%numtracks%» %hascover%—picture=»%coverfile%»%hascover% %source% -o %dest%

TOC of the extracted CD

Track | Start | Length | Start sector | End sector
———————————————————
1 | 0:00.00 | 4:02.00 | 0 | 18149
2 | 4:02.00 | 3:29.00 | 18150 | 33824
3 | 7:31.00 | 3:35.00 | 33825 | 49949
4 | 11:06.00 | 3:21.00 | 49950 | 65024
5 | 14:27.00 | 2:36.00 | 65025 | 76724
6 | 17:03.00 | 3:00.00 | 76725 | 90224
7 | 20:03.00 | 2:39.00 | 90225 | 102149
8 | 22:42.00 | 3:12.00 | 102150 | 116549

Range status and errors

Selected range

Filename C:EAC RipsAbominable Putridity — The Anomalies Of Artificial Origin.wav

Peak level 99.0 %
Extraction speed 3.3 X
Range quality 100.0 %
Test CRC 1F1E90D5
Copy CRC 1F1E90D5
Copy OK

No errors occurred

AccurateRip summary

Track 1 not present in database
Track 2 not present in database
Track 3 not present in database
Track 4 not present in database
Track 5 not present in database
Track 6 not present in database
Track 7 not present in database
Track 8 not present in database

None of the tracks are present in the AccurateRip database

End of status report

==== Log checksum B8402563FC0C8B2E3CB286474CD1214A15E41EE7FDED8C87C23B5A6BB89F1196 ====

   auCDtect Log:
————————

DON’T MODIFY THIS FILE

————————

PERFORMER: auCDtect Task Manager, ver. 1.6.0 RC1 build 1.6.0.1
Copyright (c) 2008-2010 y-soft. All rights reserved
http://y-soft.org

ANALYZER: auCDtect: CD records authenticity detector, version 0.8.2
Copyright (c) 2004 Oleg Berngardt. All rights reserved.
Copyright (c) 2004 Alexander Djourik. All rights reserved.

FILE: Abominable Putridity — The Anomalies Of Artificial Origin.flac
Size: 220457693 Hash: FC38800A059C3F75E527D4CCC381CFFF Accuracy: -m0
Conclusion: CDDA 100%
Signature: C1C9A16C9FBA5D9BCA8BAA8E2F6077596D78B60D

   2015The Anomalies Of Artificial Origin (Remixed & Remastered)

Length / Продолжительность: 00:25:38
Tracklist / Треклист:
01. Remnants of the Tortured
02. A Massacre in the North
03. Letting Them Fall…
04. A Burial for the Abandoned
05. Lack of Oxygen
06. Wormhole Inversion
07. The Anomalies of Artificial Origin
08. The Last Communion

   auCDtect Log:
————————

DON’T MODIFY THIS FILE

————————

PERFORMER: auCDtect Task Manager, ver. 1.6.0 RC1 build 1.6.0.1
Copyright (c) 2008-2010 y-soft. All rights reserved
http://y-soft.org

ANALYZER: auCDtect: CD records authenticity detector, version 0.8.2
Copyright (c) 2004 Oleg Berngardt. All rights reserved.
Copyright (c) 2004 Alexander Djourik. All rights reserved.

FILE: 08 The Last Communion.flac
Size: 26459167 Hash: 68ADB327238AE24FA66FA8D379A5D301 Accuracy: -m0
Conclusion: CDDA 100%
Signature: 32D999AF07482A136AD66EEDE54737BECE9C732B
FILE: 07 The Anomalies Of Artificial Origin.flac
Size: 21960693 Hash: B0488420F6EC319E331DA70C886F590F Accuracy: -m0
Conclusion: CDDA 100%
Signature: 940B039168F2E954DB192B8C6FAA24B86D9076F2
FILE: 06 Wormhole Inversion.flac
Size: 24827224 Hash: ADAA9A4339502945FC511CE7254E1F21 Accuracy: -m0
Conclusion: CDDA 100%
Signature: 4AE0B57F97CA498E313ED9B2501C1DE1C44AE2B2
FILE: 05 Lack Of Oxygen.flac
Size: 21869125 Hash: AA77E67679FFD2BC325AE535B8ECB92B Accuracy: -m0
Conclusion: CDDA 100%
Signature: F333908F9D53A709064C182BC6A3FBE1A80A2712
FILE: 04 A Burial For The Abandoned.flac
Size: 27578268 Hash: 9BD5A5A41EDE30F8A9C8FE6098B99E10 Accuracy: -m0
Conclusion: CDDA 100%
Signature: 4749C5A06E73C4D08529A340E34EE091E7E675A8
FILE: 03 Letting Them Fall….flac
Size: 29740374 Hash: AA42439D55D2D6459A99B9303E209524 Accuracy: -m0
Conclusion: CDDA 100%
Signature: E94477692409BBEF778093AF1F1B12FC282585DF
FILE: 02 A Massacre In The North.flac
Size: 29295415 Hash: E7B8EF80CE56C50597F7B64320808D2C Accuracy: -m0
Conclusion: CDDA 100%
Signature: 6C268DF381B224B5FF7B43DAB7A6262C10C5B1A9
FILE: 01 Remnants Of The Tortured.flac
Size: 32531153 Hash: CDB97125DE6511DB3A037C0FA91F3EF1 Accuracy: -m0
Conclusion: CDDA 100%
Signature: AB93BAF78414C21075AF2F17FCCF2EE86790D647

   About Band:
AlexDrums  (2003-present), Vocals  (2003) (Deracinated, ex-Guttural Engorgement, ex-Vermicular Decay)
Andrey K.Bass  (2006-present, ex-Ease of Disgust, ex-Vermicular Decay)
Sergey BalayanGuitars  (2009-present)
Matti WayVocals  (2011-present, Cinerary, Hydrocephalic, Liturgy A.D., ex-Infantiphagia, ex-Obscured Secretions, Funeral Rust, Submerged, ex-Pathology, ex-Disgorge, ex-Below The Root, ex-To Violently Vomit)

Past Members:
PavelGuitars  (2003-2005)
NikitaBass  (2004-2006)
VladimirVocals  (2004-2007)
VadGuitars  (2005-2007, Iration, The Occult, ex-xHARAMx)
SergGuitars  (2006-2009)
Cameron «Big Chocolate» ArgonVocals  (2009-2011, Disfiguring the Goddess, Big Chocolate, Just Jack!, ex-Malodorous, ex-Misericordiam, ex-Burning the Masses, ex-Commissioner, ex-Dissever the Tyrant, ex-Perforate Carcass, ex-The Mercury Drug, ex-To Your Severed Bodies Go (live))

03.07.2018
12:03


Source

Скачать Abominable Putridity — Discography (2007-2015) (Lossless) торрент файлом бесплатно в хорошем качестве MP3 и Lossless.

Download the torrent file of group Abominable Putridity — Discography (2007-2015) (Lossless) for free in excellent quality Lossy (MP3 320 kbps (Stereo, High Quality), AAC) and Lossless (WAVE, FLAC).

Добавить комментарий

Ваш e-mail не будет опубликован. Обязательные поля помечены *