Категория: Музыка
Год: 2018
Стиль: Thrash Metal
Страна: Дания
Формат: FLAC
Размер: 375.83 MB
Раздал: Metalhead 97979   
Оценка: Artillery — The Face Of Fear (Special Edition) (Lossless)

5/5 Голоса: 2

Добавлено: 07/12/2018 11:47:41
Файлов: 23
Скачан: 4 (Взят — 15) 3 5
Сид был: 07/12/2018 12:07:48
Модерация: Проверен пользователем Metalhead 97979
Описание:
Audio codec / Аудио кодек: FLAC
Rip type / Тип рипа: image+.cue
Audio bitrate / Битрейт аудио: 1040 kbps
Scans from the disc / Сканы с диска: Yes
Length / Продолжительность: 00:45:58

Tracks / Треклист:

01. The Face Of Fear
02. Crossroads To Conspiracy
03. New Rage
04. Sworn Utopia
05. Through The Ages Of Atrocity
06. Thirst For The Worst
07. Pain
08. Under Water
09. Preaching To The Converted
10. Mind Of No Return (Re-Recorded) (Bonus Track)
11. Doctor Evil (Re-Recorded) (Bonus Track)

  EAC Log:Exact Audio Copy V1.3 from 2. September 2016

EAC extraction logfile from 5. December 2018, 18:37

Artillery / The Face Of Fear

Used drive : ATAPI iHAS122 W Adapter: 2 ID: 0

Read mode : Secure
Utilize accurate stream : Yes
Defeat audio cache : Yes
Make use of C2 pointers : No

Read offset correction : 48
Overread into Lead-In and Lead-Out : No
Fill up missing offset samples with silence : Yes
Delete leading and trailing silent blocks : No
Null samples used in CRC calculations : Yes
Used interface : Installed external ASPI interface

Used output format : User Defined Encoder
Selected bitrate : 1024 kBit/s
Quality : High
Add ID3 tag : No
Command line compressor : C:Program FilesFLACflac.exe
Additional command line options : -V -8 -T «Date=%year%» -T «Genre=%genre%» -T»COMMENT=Ripped by Ilijan [MeTaLMaDNeSS.TeaM]» -8 -V %source%

TOC of the extracted CD

Track | Start | Length | Start sector | End sector
———————————————————
1 | 0:00.00 | 4:00.17 | 0 | 18016
2 | 4:00.17 | 4:27.07 | 18017 | 38048
3 | 8:27.24 | 4:03.38 | 38049 | 56311
4 | 12:30.62 | 3:59.19 | 56312 | 74255
5 | 16:30.06 | 5:02.53 | 74256 | 96958
6 | 21:32.59 | 4:20.51 | 96959 | 116509
7 | 25:53.35 | 4:14.00 | 116510 | 135559
8 | 30:07.35 | 2:09.38 | 135560 | 145272
9 | 32:16.73 | 4:00.63 | 145273 | 163335
10 | 36:17.61 | 3:48.54 | 163336 | 180489
11 | 40:06.40 | 5:51.44 | 180490 | 206858

Range status and errors

Selected range

Filename D:Vknish+g.y.m.=3.14дарасы (Upload On Rutracker, DIE!!!)Artillery — The Face Of Fear.wav

Peak level 96.5 %
Extraction speed 3.7 X
Range quality 100.0 %
Test CRC 9611C496
Copy CRC 9611C496
Copy OK

No errors occurred

AccurateRip summary

Track 1 not present in database
Track 2 not present in database
Track 3 not present in database
Track 4 not present in database
Track 5 not present in database
Track 6 not present in database
Track 7 not present in database
Track 8 not present in database
Track 9 not present in database
Track 10 not present in database
Track 11 not present in database

None of the tracks are present in the AccurateRip database

End of status report

—- CUETools DB Plugin V2.1.6

[CTDB TOCID: fGBDoLs873ocDIzz2.0qpmGoO5c-] found
Submit result: fGBDoLs873ocDIzz2.0qpmGoO5c- has been confirmed
Track | CTDB Status
1 | (1/1) Accurately ripped
2 | (1/1) Accurately ripped
3 | (1/1) Accurately ripped
4 | (1/1) Accurately ripped
5 | (1/1) Accurately ripped
6 | (1/1) Accurately ripped
7 | (1/1) Accurately ripped
8 | (1/1) Accurately ripped
9 | (1/1) Accurately ripped
10 | (1/1) Accurately ripped
11 | (1/1) Accurately ripped

==== Log checksum 4750D9D129AEA144CFF9C2F721BFE3B98A47385ABC35BA90B55C9536AD21D323 ====

  auCDtect Log:————————

DON’T MODIFY THIS FILE

————————

PERFORMER: auCDtect Task Manager, ver. 1.6.0 RC1 build 1.6.0.1
Copyright (c) 2008-2010 y-soft. All rights reserved
http://y-soft.org

ANALYZER: auCDtect: CD records authenticity detector, version 0.8.2
Copyright (c) 2004 Oleg Berngardt. All rights reserved.
Copyright (c) 2004 Alexander Djourik. All rights reserved.

FILE: Artillery — The Face Of Fear.flac
Size: 358501083 Hash: 6B7BDE94BF5E29131378056C950F2881 Accuracy: -m0
Conclusion: MPEG 95%
Signature: 7F2F0BB26BE0CAF8B8A91480AA8300DBFB9B601A

  Spectral Analysis:

07.12.2018
12:15


Source

Скачать Artillery — The Face Of Fear (Special Edition) (Lossless) торрент файлом бесплатно в хорошем качестве MP3 и Lossless.

Download the torrent file of group Artillery — The Face Of Fear (Special Edition) (Lossless) for free in excellent quality Lossy (MP3 320 kbps (Stereo, High Quality), AAC) and Lossless (WAVE, FLAC).

Добавить комментарий

Ваш e-mail не будет опубликован. Обязательные поля помечены *