Категория: Музыка
Стиль: Brutal Death Metal
Дополнительный: Grindcore
Страна: Франция
Формат: FLAC
Размер: 3.08 GB
Раздал: jared_wanted   
Оценка: Benighted – Discography (2000-2017) (Lossless)

4.98/5 Голоса: 9

Добавлено: 14/06/2018 01:41:24
Файлов: 132
Скачан: 62 (Взят – 85) 6 0
Сид был: 03/07/2018 11:57:51
Модерация: Проверен пользователем jared_wanted
Описание:
Style / Стиль: Black Metal (early),
                        Brutal Death Metal (mid),
                        Brutal Death Metal / Grindcore (later)  (someone says Brutal Death Grind, whatever)


Audio Codec / Аудио кодек:
FLAC
Rip Type / Тип рипа: image+.log+.cue
                                  tracks+.log+.cue – Benighted
                                  tracks (scene) – Necrobreed
Audio Bitrate / Битрейт аудио: 615-1120 kbps, 44.1 kHz
Scans From The Disc / Сканы с диска: yes (except 2014, 2015, 2017)

Albums / Альбомы:
   2000Benighted

Length / Продолжительность: 00:31:42
Tracklist / Треклист:
01. The Diabolical Reign of the Four Fallen Angels
02. Werewolf’s Nightmare
03. Last Part of Humanity
04. Nocturne
05. Benighted Transcendence
06. Abysses of Sadness
07. Infernal Killings

   EAC Log:
Exact Audio Copy V1.1 from 23. June 2015

EAC extraction logfile from 28. January 2016, 20:09

Benighted / Benighted

Used drive : PLEXTOR CD-R PX-W5224A Adapter: 1 ID: 0

Read mode : Secure
Utilize accurate stream : Yes
Defeat audio cache : Yes
Make use of C2 pointers : No

Read offset correction : 30
Overread into Lead-In and Lead-Out : Yes
Fill up missing offset samples with silence : Yes
Delete leading and trailing silent blocks : No
Null samples used in CRC calculations : Yes
Used interface : Native Win32 interface for Win NT & 2000
Gap handling : Appended to previous track

Used output format : User Defined Encoder
Selected bitrate : 1024 kBit/s
Quality : High
Add ID3 tag : No
Command line compressor : C:Program Files (x86)Exact Audio CopyFLACFLAC.EXE
Additional command line options : -8 -V -T “ARTIST=%artist%” -T “TITLE=%title%” -T “ALBUM=%albumtitle%” -T “DATE=%year%” -T “TRACKNUMBER=%tracknr%” -T “GENRE=%genre%” -T “COMMENT=%comment%” -T “BAND=%albuminterpret%” -T “ALBUMARTIST=%albuminterpret%” -T “COMPOSER=%composer%” %haslyrics%–tag-from-file=LYRICS=”%lyricsfile%”%haslyrics% -T “DISCNUMBER=%cdnumber%” -T “TOTALDISCS=%totalcds%” -T “TOTALTRACKS=%numtracks%” %hascover%–picture=”%coverfile%”%hascover% %source% -o %dest%

TOC of the extracted CD

Track | Start | Length | Start sector | End sector
———————————————————
1 | 0:00.00 | 3:02.39 | 0 | 13688
2 | 3:02.39 | 5:04.68 | 13689 | 36556
3 | 8:07.32 | 5:41.20 | 36557 | 62151
4 | 13:48.52 | 3:13.69 | 62152 | 76695
5 | 17:02.46 | 5:36.58 | 76696 | 101953
6 | 22:39.29 | 5:37.73 | 101954 | 127301
7 | 28:17.27 | 3:24.52 | 127302 | 142653

Track 1

Filename R:1 The Diabolical Reign of the Four Fallen Angels.wav

Pre-gap length 0:00:02.00

Peak level 96.6 %
Extraction speed 2.6 X
Track quality 100.0 %
Test CRC 56A349BB
Copy CRC 56A349BB
Cannot be verified as accurate (confidence 1) [B3102086], AccurateRip returned [6B42E7C1] (AR v2)
Copy OK

Track 2

Filename R:2 Werewolf’s Nightmare.wav

Peak level 96.6 %
Extraction speed 3.1 X
Track quality 100.0 %
Test CRC F75497F3
Copy CRC F75497F3
Cannot be verified as accurate (confidence 1) [5AF52F51], AccurateRip returned [E73CD7FB] (AR v2)
Copy OK

Track 3

Filename R:3 Last Part of Humanity.wav

Pre-gap length 0:00:02.10

Peak level 96.6 %
Extraction speed 2.9 X
Track quality 99.9 %
Test CRC F4D3AAD4
Copy CRC F4D3AAD4
Cannot be verified as accurate (confidence 1) [57A811D6], AccurateRip returned [9F43CF61] (AR v2)
Copy OK

Track 4

Filename R:4 Nocturne.wav

Pre-gap length 0:00:01.20

Peak level 96.6 %
Extraction speed 3.5 X
Track quality 100.0 %
Test CRC 3B358278
Copy CRC 3B358278
Cannot be verified as accurate (confidence 1) [E700B219], AccurateRip returned [788C4D54] (AR v2)
Copy OK

Track 5

Filename R:5 Benighted Transcendence.wav

Pre-gap length 0:00:01.00

Peak level 96.6 %
Extraction speed 4.1 X
Track quality 100.0 %
Test CRC FF9C998A
Copy CRC FF9C998A
Cannot be verified as accurate (confidence 1) [A5C48F65], AccurateRip returned [79C9D758] (AR v2)
Copy OK

Track 6

Filename R:6 Abysses of Sadness.wav

Peak level 96.6 %
Extraction speed 3.3 X
Track quality 99.9 %
Test CRC 9B559882
Copy CRC 9B559882
Cannot be verified as accurate (confidence 1) [7623D24A], AccurateRip returned [D65013EA] (AR v2)
Copy OK

Track 7

Filename R:7 Infernal Killings.wav

Pre-gap length 0:00:01.60

Peak level 96.6 %
Extraction speed 4.4 X
Track quality 100.0 %
Test CRC DEF8B7F1
Copy CRC DEF8B7F1
Cannot be verified as accurate (confidence 1) [834504FE], AccurateRip returned [28DEB03B] (AR v2)
Copy OK

No tracks could be verified as accurate
You may have a different pressing from the one(s) in the database

No errors occurred

End of status report

—- CUETools DB Plugin V2.1.6

[CTDB TOCID: xSmpnJQ6LsNqckr4kKcY6glrBFk-] found
Submit result: xSmpnJQ6LsNqckr4kKcY6glrBFk- has been confirmed
Track | CTDB Status
1 | (2/2) Accurately ripped
2 | (2/2) Accurately ripped
3 | (2/2) Accurately ripped
4 | (2/2) Accurately ripped
5 | (2/2) Accurately ripped
6 | (2/2) Accurately ripped
7 | (2/2) Accurately ripped

==== Log checksum E0549E8417EED86DE1E32450F576D32EB99299957F27A4AE62CE577407EE2477 ====

   2002Psychose

Length / Продолжительность: 00:51:19
Tracklist / Треклист:
01. Prémices psychotiques (Instrumental)
02. Paranoia
03. Dégénérescence
04. Banished
05. Arcanes démoniaques
06. Aversion fanatique
07. Lost in Catalepsy
08. From Desire to Disgust
09. Internal Sufferings (Instrumental)
10. Claustrophobia
11. Feasting on the Disinterred Corpse
12. Unleash Hell
13. Slay the Benighted (Instrumental)

   EAC Log:
EAC extraction logfile from 27. January 2008, 23:01 for CD
Benighted / Psychose

Used drive : _NEC DVD_RW ND-4551A Adapter: 1 ID: 0
Read mode : Secure with NO C2, accurate stream, disable cache
Read offset correction : 48
Overread into Lead-In and Lead-Out : No

Used output format : Internal WAV Routines
44.100 Hz; 16 Bit; Stereo
Use compression offset : 0

Other options :
Fill up missing offset samples with silence : Yes
Delete leading and trailing silent blocks : No
Native Win32 interface for Win NT & 2000

Range status and errors
Selected range
Filename F:.p2peMuleReleasestmpBenighted – 2002 – PsychoseBenighted – Psychose.wav

Peak level 96.6 %
Range quality 100.0 %
CRC A3801F86
Copy OK

No errors occured

End of status report

   2003Insane Cephalic Production (Remastered 2009)

Length / Продолжительность: 00:40:14
Tracklist / Треклист:
01. Bestial Breeding
02. Stay Brutal
03. Foetus
04. Deviant
05. Puerperal Cannibalism
06. Self-Proclaimed God
07. Dementia (The Precocious Symptoms of Mental Perversion)
08. Phlebotomized
09. Insane Cephalic Production
10. Insomnies
11. Banished
12. Running Man (Raised Fist cover)

   EAC Log:
Exact Audio Copy V0.99 prebeta 4 from 23. January 2008

EAC extraction logfile from 5. April 2009, 20:50

Benighted / Insane Cephalic Production (Re-mastered 2009)

Used drive : PIONEER DVD-RW DVR-212D Adapter: 3 ID: 0

Read mode : Secure
Utilize accurate stream : Yes
Defeat audio cache : Yes
Make use of C2 pointers : No

Read offset correction : 48
Overread into Lead-In and Lead-Out : No
Fill up missing offset samples with silence : Yes
Delete leading and trailing silent blocks : No
Null samples used in CRC calculations : Yes
Used interface : Installed external ASPI interface

Used output format : User Defined Encoder
Selected bitrate : 128 kBit/s
Quality : High
Add ID3 tag : No
Command line compressor : C:Program FilesExact Audio CopyFlacflac.exe
Additional command line options : -6 -V %s

TOC of the extracted CD

Track | Start | Length | Start sector | End sector
———————————————————
1 | 0:00.00 | 3:49.56 | 0 | 17230
2 | 3:49.56 | 2:59.41 | 17231 | 30696
3 | 6:49.22 | 3:05.52 | 30697 | 44623
4 | 9:54.74 | 4:02.17 | 44624 | 62790
5 | 13:57.16 | 3:46.63 | 62791 | 79803
6 | 17:44.04 | 3:34.42 | 79804 | 95895
7 | 21:18.46 | 1:21.21 | 95896 | 101991
8 | 22:39.67 | 4:06.27 | 101992 | 120468
9 | 26:46.19 | 3:34.20 | 120469 | 136538
10 | 30:20.39 | 4:48.03 | 136539 | 158141
11 | 35:08.42 | 3:18.55 | 158142 | 173046
12 | 38:27.22 | 1:47.21 | 173047 | 181092

Range status and errors

Selected range

Filename M:my releasesnew releasesbenightedBenighted – Insane Cephalic Production (Re-mastered 2009).wav

Peak level 98.8 %
Range quality 100.0 %
Copy CRC 1377EDCE
Copy OK

No errors occurred

AccurateRip summary

Track 1 not present in database
Track 2 not present in database
Track 3 not present in database
Track 4 not present in database
Track 5 not present in database
Track 6 not present in database
Track 7 not present in database
Track 8 not present in database
Track 9 not present in database
Track 10 not present in database
Track 11 not present in database
Track 12 not present in database

None of the tracks are present in the AccurateRip database

End of status report

   2006Identisick (Re-Issue 2008)

Length / Продолжительность: 00:41:11
Tracklist / Треклист:
01. Nemesis
02. Collapse
03. Identisick
04. Sex-Addicted
05. Mourning Affliction
06. The Twins
07. Ransack the Soul
08. Blind to the World
09. Spiritual Manslaughter
10. Iscarioth
11. Suffer the Children (Napalm Death cover)

   EAC Log:
Exact Audio Copy V0.99 prebeta 4 from 23. January 2008

EAC extraction logfile from 19. December 2008, 17:52

Benighted / Identisick

Used drive : PIONEER DVD-RW DVR-212D Adapter: 3 ID: 0

Read mode : Secure
Utilize accurate stream : Yes
Defeat audio cache : Yes
Make use of C2 pointers : No

Read offset correction : 48
Overread into Lead-In and Lead-Out : No
Fill up missing offset samples with silence : Yes
Delete leading and trailing silent blocks : No
Null samples used in CRC calculations : Yes
Used interface : Installed external ASPI interface

Used output format : User Defined Encoder
Selected bitrate : 128 kBit/s
Quality : High
Add ID3 tag : No
Command line compressor : C:Program FilesExact Audio CopyFlacflac.exe
Additional command line options : -6 -V %s

TOC of the extracted CD

Track | Start | Length | Start sector | End sector
———————————————————
1 | 0:00.00 | 3:32.37 | 0 | 15936
2 | 3:32.37 | 3:47.40 | 15937 | 33001
3 | 7:20.02 | 3:54.18 | 33002 | 50569
4 | 11:14.20 | 3:55.15 | 50570 | 68209
5 | 15:09.35 | 4:11.15 | 68210 | 87049
6 | 19:20.50 | 3:21.24 | 87050 | 102148
7 | 22:41.74 | 3:19.42 | 102149 | 117115
8 | 26:01.41 | 3:58.20 | 117116 | 134985
9 | 29:59.61 | 3:18.74 | 134986 | 149909
10 | 33:18.60 | 3:44.54 | 149910 | 166763
11 | 37:03.39 | 4:08.21 | 166764 | 185384

Range status and errors

Selected range

Filename M:my releasesBenighted – IdentisickBenighted – Identisick.wav

Peak level 98.8 %
Range quality 100.0 %
Copy CRC D1700E5C
Copy OK

No errors occurred

AccurateRip summary

Track 1 cannot be verified as accurate (confidence 2) [6599F4AE], AccurateRip returned [17ECB543]
Track 2 cannot be verified as accurate (confidence 2) [47209ED4], AccurateRip returned [2A199DA4]
Track 3 cannot be verified as accurate (confidence 2) [33771B89], AccurateRip returned [B121096B]
Track 4 cannot be verified as accurate (confidence 2) [36514FC1], AccurateRip returned [7C9D82FE]
Track 5 cannot be verified as accurate (confidence 2) [F5464BED], AccurateRip returned [E7029909]
Track 6 cannot be verified as accurate (confidence 2) [905B1A43], AccurateRip returned [4AE457E8]
Track 7 cannot be verified as accurate (confidence 2) [831691EA], AccurateRip returned [B8F4588F]
Track 8 cannot be verified as accurate (confidence 2) [5E584978], AccurateRip returned [655F1B39]
Track 9 cannot be verified as accurate (confidence 2) [BC77B577], AccurateRip returned [32949212]
Track 10 cannot be verified as accurate (confidence 2) [771B03AB], AccurateRip returned [6985F781]
Track 11 cannot be verified as accurate (confidence 2) [03253546], AccurateRip returned [37D8D7BF]

No tracks could be verified as accurate
You may have a different pressing from the one(s) in the database

End of status report

   2007Icon

Length / Продолжительность: 00:39:07
Tracklist / Треклист:
01. Complete Exsanguination
02. Slut
03. Grind Wit
04. Saw It All
05. Forsaken
06. Smile Then Bleed
07. Pledge of Retaliation
08. Icon
09. Human Circles
10. Invoxhate
11. The Underneath
12. Blindfolded Centuries

   EAC Log:
Exact Audio Copy V0.99 prebeta 4 from 23. January 2008

EAC extraction logfile from 1. February 2009, 0:04

Benighted / Icon

Used drive : PIONEER DVD-RW DVR-212D Adapter: 3 ID: 0

Read mode : Secure
Utilize accurate stream : Yes
Defeat audio cache : Yes
Make use of C2 pointers : No

Read offset correction : 48
Overread into Lead-In and Lead-Out : No
Fill up missing offset samples with silence : Yes
Delete leading and trailing silent blocks : No
Null samples used in CRC calculations : Yes
Used interface : Installed external ASPI interface

Used output format : User Defined Encoder
Selected bitrate : 128 kBit/s
Quality : High
Add ID3 tag : No
Command line compressor : C:Program FilesExact Audio CopyFlacflac.exe
Additional command line options : -6 -V %s

TOC of the extracted CD

Track | Start | Length | Start sector | End sector
———————————————————
1 | 0:00.00 | 0:26.52 | 0 | 2001
2 | 0:26.52 | 2:54.39 | 2002 | 15090
3 | 3:21.16 | 3:39.04 | 15091 | 31519
4 | 7:00.20 | 3:56.20 | 31520 | 49239
5 | 10:56.40 | 3:30.04 | 49240 | 64993
6 | 14:26.44 | 3:38.54 | 64994 | 81397
7 | 18:05.23 | 3:03.08 | 81398 | 95130
8 | 21:08.31 | 4:18.46 | 95131 | 114526
9 | 25:27.02 | 3:49.10 | 114527 | 131711
10 | 29:16.12 | 3:28.37 | 131712 | 147348
11 | 32:44.49 | 3:01.32 | 147349 | 160955
12 | 35:46.06 | 3:21.10 | 160956 | 176040

Range status and errors

Selected range

Filename M:my releasesnew releasesIconBenighted – Icon.wav

Peak level 99.9 %
Range quality 100.0 %
Copy CRC 1CC6FBB2
Copy OK

No errors occurred

AccurateRip summary

Track 1 accurately ripped (confidence 4) [7469C1B7]
Track 2 accurately ripped (confidence 4) [271B1CD4]
Track 3 accurately ripped (confidence 4) [57D7DE3C]
Track 4 accurately ripped (confidence 4) [63553C8E]
Track 5 accurately ripped (confidence 4) [9466F614]
Track 6 accurately ripped (confidence 4) [54BD5E82]
Track 7 accurately ripped (confidence 4) [620E5968]
Track 8 accurately ripped (confidence 4) [46795922]
Track 9 accurately ripped (confidence 4) [88A1ECDE]
Track 10 accurately ripped (confidence 4) [22944A39]
Track 11 accurately ripped (confidence 4) [2D3BE4BE]
Track 12 accurately ripped (confidence 4) [90E0C122]

All tracks accurately ripped

End of status report

   2011Asylum Cave (Limited Edition)

Length / Продолжительность: 00:47:15
Tracklist / Треклист:
01. Asylum Cave
02. Let the Blood Spill Between My Broken Teeth
03. Prey
04. Hostile
05. Fritzl
06. Unborn Infected Children
07. The Cold Remains
08. A Quiet Day
09. Shadows Descend
10. Swallow
11. Lethal Merycism
12. Drowning
13. Wrath (Nasum cover)

   EAC Log:
Exact Audio Copy V1.0 beta 3 from 29. August 2011

EAC extraction logfile from 31. January 2012, 21:43

Benighted / Asylum Cave

Used drive : HL-DT-STDVDRAM GH22NS50 Adapter: 2 ID: 0

Read mode : Secure
Utilize accurate stream : Yes
Defeat audio cache : Yes
Make use of C2 pointers : No

Read offset correction : 667
Overread into Lead-In and Lead-Out : No
Fill up missing offset samples with silence : Yes
Delete leading and trailing silent blocks : No
Null samples used in CRC calculations : Yes
Used interface : Native Win32 interface for Win NT & 2000

Used output format : User Defined Encoder
Selected bitrate : 1024 kBit/s
Quality : High
Add ID3 tag : No
Command line compressor : C:Program FilesExact Audio CopyFlacflac.exe
Additional command line options : -8 -V -T “Genre=%genre%” -T “Artist=%artist%” -T “Title=%title%” -T “Album=%albumtitle%” -T “Date=%year%” -T “Tracknumber=%tracknr%” -T “Comment=EAC1.0b3 FLAC -8” %source%

TOC of the extracted CD

Track | Start | Length | Start sector | End sector
———————————————————
1 | 0:00.00 | 3:30.38 | 0 | 15787
2 | 3:30.38 | 3:52.05 | 15788 | 33192
3 | 7:22.43 | 3:53.65 | 33193 | 50732
4 | 11:16.33 | 2:40.00 | 50733 | 62732
5 | 13:56.33 | 4:36.46 | 62733 | 83478
6 | 18:33.04 | 4:08.23 | 83479 | 102101
7 | 22:41.27 | 3:58.63 | 102102 | 120014
8 | 26:40.15 | 3:39.38 | 120015 | 136477
9 | 30:19.53 | 2:57.25 | 136478 | 149777
10 | 33:17.03 | 3:00.43 | 149778 | 163320
11 | 36:17.46 | 3:34.35 | 163321 | 179405
12 | 39:52.06 | 5:14.51 | 179406 | 203006
13 | 45:06.57 | 2:08.20 | 203007 | 212626

Range status and errors

Selected range

Filename H:TorrentsBenighted [2011] [CD] Asylum Cave [EAC-FLAC] {French Limited Edition}Benighted – Asylum Cave.wav

Peak level 98.8 %
Extraction speed 2.0 X
Range quality 100.0 %
Test CRC C03D80E0
Copy CRC C03D80E0
Copy OK

No errors occurred

AccurateRip summary

Track 1 accurately ripped (confidence 1) [11785A64] (AR v2)
Track 2 accurately ripped (confidence 1) [5A91B107] (AR v2)
Track 3 accurately ripped (confidence 1) [2E6D4A65] (AR v2)
Track 4 accurately ripped (confidence 1) [90DA9800] (AR v2)
Track 5 accurately ripped (confidence 1) [97BAFBC4] (AR v2)
Track 6 accurately ripped (confidence 1) [268B6EEC] (AR v2)
Track 7 accurately ripped (confidence 1) [BAA0E1D4] (AR v2)
Track 8 accurately ripped (confidence 1) [60B4EF72] (AR v2)
Track 9 accurately ripped (confidence 1) [605B5DDF] (AR v2)
Track 10 accurately ripped (confidence 1) [F60E97B1] (AR v2)
Track 11 accurately ripped (confidence 1) [AD9BCBF9] (AR v2)
Track 12 accurately ripped (confidence 1) [1ACB747C] (AR v2)
Track 13 accurately ripped (confidence 1) [7CC06C79] (AR v2)

All tracks accurately ripped

End of status report

==== Log checksum BA106956E8DBE325009FBB40B148A4E39D6B7F82B247F750AB9D63C0E826A767 ====

   2014Carnivore Sublime (2CD Deluxe Edition)

Length / Продолжительность: 00:37:45 + 00:32:16
Tracklist / Треклист:
   CD1:
01. X2Y
02. Noise
03. Experience Your Flesh
04. Slaughter / Suicide
05. Spit
06. Defiled Purity
07. Jekyll
08. Collection of Dead Portraits
09. Carnivore Sublime
10. Les morsures du Cerbère
11. June and the Laconic Solstice
   CD2:
01. Meticulous Invagination (Aborted cover)
02. Du riechst so gut (Rammstein cover)
03. Old (Machine Head cover)
04. The Twins (live)
05. Saw It All (live)
06. Forsaken (live)
07. Nemesis (live)
08. Spit (demo)
09. Collection of Dead Portraits (demo)

   EAC Log:
Exact Audio Copy V1.0 beta 3 from 29. August 2011

EAC extraction logfile from 15. February 2014, 17:15

Benighted / Carnivore Sublime

Used drive : TSSTcorpCDDVDW TS-L633F Adapter: 0 ID: 0

Read mode : Secure
Utilize accurate stream : Yes
Defeat audio cache : Yes
Make use of C2 pointers : No

Read offset correction : 6
Overread into Lead-In and Lead-Out : No
Fill up missing offset samples with silence : Yes
Delete leading and trailing silent blocks : No
Null samples used in CRC calculations : Yes
Used interface : Native Win32 interface for Win NT & 2000
Gap handling : Appended to previous track

Used output format : User Defined Encoder
Selected bitrate : 1024 kBit/s
Quality : High
Add ID3 tag : No
Command line compressor : C:Program Files (x86)Exact Audio CopyFlacflac.exe
Additional command line options : -8 -V -T “ARTIST=%artist%” -T “TITLE=%title%” -T “ALBUM=%albumtitle%” -T “DATE=%year%” -T “TRACKNUMBER=%tracknr%” -T “GENRE=%genre%” -T “PERFORMER=%albuminterpret%” -T “COMPOSER=%composer%” %haslyrics%–tag-from-file=LYRICS=”%lyricsfile%”%haslyrics% -T “ALBUMARTIST=%albumartist%” -T “DISCNUMBER=%cdnumber%” -T “TOTALDISCS=%totalcds%” -T “TOTALTRACKS=%numtracks%” -T “COMMENT=%comment%” %source% -o %dest%

TOC of the extracted CD

Track | Start | Length | Start sector | End sector
———————————————————
1 | 0:00.70 | 1:29.04 | 70 | 6678
2 | 1:29.04 | 3:08.63 | 6679 | 20841
3 | 4:37.67 | 3:05.50 | 20842 | 34766
4 | 7:43.42 | 4:38.04 | 34767 | 55620
5 | 12:21.46 | 3:25.58 | 55621 | 71053
6 | 15:47.29 | 4:50.39 | 71054 | 92842
7 | 20:37.68 | 2:06.56 | 92843 | 102348
8 | 22:44.49 | 3:14.54 | 102349 | 116952
9 | 25:59.28 | 4:25.10 | 116953 | 136837
10 | 30:24.38 | 3:53.65 | 136838 | 154377
11 | 34:18.28 | 3:27.49 | 154378 | 169951

Range status and errors

Selected range

Filename C:MusicBenightedCarnivore SublimeCarnivore Sublime [CD1].wav

Peak level 99.1 %
Extraction speed 1.3 X
Range quality 100.0 %
Copy CRC A42E944A
Copy OK

No errors occurred

AccurateRip summary

Track 1 not present in database
Track 2 not present in database
Track 3 not present in database
Track 4 not present in database
Track 5 not present in database
Track 6 not present in database
Track 7 not present in database
Track 8 not present in database
Track 9 not present in database
Track 10 not present in database
Track 11 not present in database

None of the tracks are present in the AccurateRip database

End of status report

—- CUETools DB Plugin V2.1.3

[CTDB TOCID: Ws540qtWWqxWdvqppeckDHzHeWI-] disk not present in database, Submit result: Ws540qtWWqxWdvqppeckDHzHeWI- has been uploaded

==== Log checksum 08166BC5D5EA8ABBA09353C9C6E36A2C5669E0719C856368C8C66FFBA9A05EDB ====

   EAC Log:
Exact Audio Copy V1.0 beta 3 from 29. August 2011

EAC extraction logfile from 15. February 2014, 17:57

Benighted / Carnivore Sublime

Used drive : TSSTcorpCDDVDW TS-L633F Adapter: 0 ID: 0

Read mode : Secure
Utilize accurate stream : Yes
Defeat audio cache : Yes
Make use of C2 pointers : No

Read offset correction : 6
Overread into Lead-In and Lead-Out : No
Fill up missing offset samples with silence : Yes
Delete leading and trailing silent blocks : No
Null samples used in CRC calculations : Yes
Used interface : Native Win32 interface for Win NT & 2000
Gap handling : Appended to previous track

Used output format : User Defined Encoder
Selected bitrate : 1024 kBit/s
Quality : High
Add ID3 tag : No
Command line compressor : C:Program Files (x86)Exact Audio CopyFlacflac.exe
Additional command line options : -8 -V -T “ARTIST=%artist%” -T “TITLE=%title%” -T “ALBUM=%albumtitle%” -T “DATE=%year%” -T “TRACKNUMBER=%tracknr%” -T “GENRE=%genre%” -T “PERFORMER=%albuminterpret%” -T “COMPOSER=%composer%” %haslyrics%–tag-from-file=LYRICS=”%lyricsfile%”%haslyrics% -T “ALBUMARTIST=%albumartist%” -T “DISCNUMBER=%cdnumber%” -T “TOTALDISCS=%totalcds%” -T “TOTALTRACKS=%numtracks%” -T “COMMENT=%comment%” %source% -o %dest%

TOC of the extracted CD

Track | Start | Length | Start sector | End sector
———————————————————
1 | 0:00.00 | 3:01.71 | 0 | 13645
2 | 3:01.71 | 4:03.73 | 13646 | 31943
3 | 7:05.69 | 3:51.69 | 31944 | 49337
4 | 10:57.63 | 3:44.24 | 49338 | 66161
5 | 14:42.12 | 3:55.12 | 66162 | 83798
6 | 18:37.24 | 3:23.54 | 83799 | 99077
7 | 22:01.03 | 3:38.70 | 99078 | 115497
8 | 25:39.73 | 3:22.49 | 115498 | 130696
9 | 29:02.47 | 3:13.48 | 130697 | 145219

Range status and errors

Selected range

Filename C:MusicBenightedCarnivore SublimeCarnivore Sublime [CD2].wav

Peak level 99.1 %
Extraction speed 1.6 X
Range quality 99.9 %
Copy CRC 6949CC7B
Copy OK

No errors occurred

AccurateRip summary

Track 1 not present in database
Track 2 not present in database
Track 3 not present in database
Track 4 not present in database
Track 5 not present in database
Track 6 not present in database
Track 7 not present in database
Track 8 not present in database
Track 9 not present in database

None of the tracks are present in the AccurateRip database

End of status report

—- CUETools DB Plugin V2.1.3

[CTDB TOCID: hBE.v8JUInILpnp7Ze5BccScbqI-] disk not present in database, Submit result: hBE.v8JUInILpnp7Ze5BccScbqI- has been uploaded

==== Log checksum 40641D04D6A1CAF5C28DC00A01D8A27C95F113000187FE79AB8D8D3F184116ED ====

   2015BrutaLive The Sick

Length / Продолжительность: 00:57:57
Tracklist / Треклист:
01. X2Y
02. Noise
03. Let the Blood Spill Between My Broken Teeth
04. Collapse
05. Experience Your Flesh
06. Carnivore Sublime
07. Prey
08. Grind Wit
09. Fritzl
10. Collection of Dead Portraits
11. Slaughter / Suicide
12. Slut
13. Asylum Cave

   EAC Log:
Exact Audio Copy V1.3 from 2. September 2016

EAC extraction logfile from 5. March 2017, 11:20

Benighted / Brutalive The Sick

Used drive : HL-DT-STDVDRAM GUE1N Adapter: 1 ID: 0

Read mode : Secure
Utilize accurate stream : Yes
Defeat audio cache : Yes
Make use of C2 pointers : No

Read offset correction : 6
Overread into Lead-In and Lead-Out : No
Fill up missing offset samples with silence : Yes
Delete leading and trailing silent blocks : No
Null samples used in CRC calculations : Yes
Used interface : Native Win32 interface for Win NT & 2000

Used output format : User Defined Encoder
Selected bitrate : 896 kBit/s
Quality : High
Add ID3 tag : No
Command line compressor : C:Program Files (x86)Exact Audio Copyflac.exe
Additional command line options : -6 -V %source%

TOC of the extracted CD

Track | Start | Length | Start sector | End sector
———————————————————
1 | 0:00.00 | 2:38.29 | 0 | 11878
2 | 2:38.29 | 3:42.51 | 11879 | 28579
3 | 6:21.05 | 4:16.00 | 28580 | 47779
4 | 10:37.05 | 5:02.73 | 47780 | 70502
5 | 15:40.03 | 3:12.01 | 70503 | 84903
6 | 18:52.04 | 5:32.74 | 84904 | 109877
7 | 24:25.03 | 4:15.02 | 109878 | 129004
8 | 28:40.05 | 3:39.00 | 129005 | 145429
9 | 32:19.05 | 6:06.73 | 145430 | 172952
10 | 38:26.03 | 4:22.02 | 172953 | 192604
11 | 42:48.05 | 5:44.32 | 192605 | 218436
12 | 48:32.37 | 4:10.41 | 218437 | 237227
13 | 52:43.03 | 5:14.58 | 237228 | 260835

Range status and errors

Selected range

Filename D:_MMTBENiGHTED-Brutalive The SickBenighted-Brutalive The Sick (2015).wav

Peak level 100.0 %
Extraction speed 4.1 X
Range quality 100.0 %
Copy CRC E29158EF
Copy OK

No errors occurred

AccurateRip summary

Track 1 accurately ripped (confidence 1) [D64EAAA2] (AR v2)
Track 2 accurately ripped (confidence 1) [023AFF3C] (AR v2)
Track 3 accurately ripped (confidence 1) [8A62446B] (AR v2)
Track 4 accurately ripped (confidence 1) [32E0E2AB] (AR v2)
Track 5 accurately ripped (confidence 1) [B9F5739A] (AR v2)
Track 6 accurately ripped (confidence 1) [E1DA1223] (AR v2)
Track 7 accurately ripped (confidence 1) [BA660555] (AR v2)
Track 8 accurately ripped (confidence 1) [C56494DE] (AR v2)
Track 9 accurately ripped (confidence 1) [5807A891] (AR v2)
Track 10 accurately ripped (confidence 1) [BC0F9713] (AR v2)
Track 11 accurately ripped (confidence 1) [405088B5] (AR v2)
Track 12 accurately ripped (confidence 1) [A562B61A] (AR v2)
Track 13 accurately ripped (confidence 1) [AB9858F7] (AR v2)

All tracks accurately ripped

End of status report

—- CUETools DB Plugin V2.1.6

[CTDB TOCID: frWVgIxeOKf0Pvz7ld.SNoYAXFY-] found
Submit result: frWVgIxeOKf0Pvz7ld.SNoYAXFY- has been confirmed
Track | CTDB Status
1 | (3/3) Accurately ripped
2 | (3/3) Accurately ripped
3 | (3/3) Accurately ripped
4 | (3/3) Accurately ripped
5 | (3/3) Accurately ripped
6 | (3/3) Accurately ripped
7 | (3/3) Accurately ripped
8 | (3/3) Accurately ripped
9 | (3/3) Accurately ripped
10 | (3/3) Accurately ripped
11 | (3/3) Accurately ripped
12 | (3/3) Accurately ripped
13 | (3/3) Accurately ripped

==== Log checksum C8F7A0401F4C6710A167916630064CF04D4ED881FB8CBFF2A3CAD6763327F9A5 ====

   2017Necrobreed

Length / Продолжительность: 00:38:34
Tracklist / Треклист:
01. Hush Little Baby (Instrumental)
02. Reptilian
03. Psychosilencer
04. Forgive Me Father
05. Leatherface
06. Der Doppelgaenger
07. Necrobreed
08. Monsters Make Monsters
09. Cum with Disgust
10. Versipellis
11. Reeks of Darkened Zoopsia
12. Mass Grave

   auCDtect Log:
———————–

DON’T MODIFY THIS FILE

———————–

PERFORMER: auCDtect Task Manager, ver. 1.6.0 RC1 build 1.6.0.1
Copyright (c) 2008-2010 y-soft. All rights reserved
http://y-soft.org

ANALYZER: auCDtect: CD records authenticity detector, version 0.8.2
Copyright (c) 2004 Oleg Berngardt. All rights reserved.
Copyright (c) 2004 Alexander Djourik. All rights reserved.

FILE: 12. Mass Grave.flac
Size: 38145719 Hash: 7F7856B64D4C863B569B1F9A1310006F Accuracy: -m0
Conclusion: CDDA 100%
Signature: BA58D4EF30DC9D1C3719354260FD7450866E01D6
FILE: 11. Reeks Of Darkened Zoopsia.flac
Size: 25508764 Hash: 92457CA65527BC61276C172F9070CE3F Accuracy: -m0
Conclusion: MPEG 95%
Signature: 85551722767194B6D7F5C889A416734820E39FA9
FILE: 10. Versipellis.flac
Size: 22772862 Hash: 6E47655A1E57ECA44D26E74858FE87EC Accuracy: -m0
Conclusion: CDDA 100%
Signature: D8C71B3B9592D00716128A0575C67B3157315C7D
FILE: 09. Cum With Disgust.flac
Size: 24920645 Hash: 49B4DB9BAA3600F7FC0B6B4529F42BB4 Accuracy: -m0
Conclusion: CDDA 100%
Signature: 1D3B944CF3F0FA9C7ACDD87D93E4FDDF7251EF19
FILE: 08. Monsters Make Monsters.flac
Size: 27230452 Hash: C1B95F070301334EEEDAB9B781380671 Accuracy: -m0
Conclusion: CDDA 100%
Signature: D4B508341A6EB7C75F470755D876CCD73D9AC8D6
FILE: 07. Necrobreed.flac
Size: 11693162 Hash: 9730A082DD62730E99079A7AA0D54302 Accuracy: -m0
Conclusion: CDDA 100%
Signature: 69EBA6A661048132857C3545C1414259B0A635F8
FILE: 06. Der Doppelgaenger.flac
Size: 29381378 Hash: 6D6ED17A4F9A2BBE8DA75B5767A48F83 Accuracy: -m0
Conclusion: CDDA 100%
Signature: 54B86BE60FCF04B94E74EB9FC1AA41273685F369
FILE: 05. Leatherface.flac
Size: 25486886 Hash: C80461826616658FE95B3B941917EBB0 Accuracy: -m0
Conclusion: CDDA 100%
Signature: 0299A45FE6CD7FB248CA37BC84E0C594B0C40B50
FILE: 04. Forgive Me Father.flac
Size: 34696803 Hash: B9B964BB46F00BF1AFF5B9F4477475B0 Accuracy: -m0
Conclusion: CDDA 99%
Signature: 6AC455ED3DB27EBA31DC586F7C3BC01B49510971
FILE: 03. Psychosilencer.flac
Size: 27914475 Hash: 974ECB48EABAFCA15237B1999CAE1E5D Accuracy: -m0
Conclusion: MPEG 95%
Signature: 00FDD7B94D00E2793D9B1485EA48B8603812378D
FILE: 02. Reptilian.flac
Size: 26643763 Hash: 3EBB4B1C0E1379AD6F20F24D6569DF27 Accuracy: -m0
Conclusion: CDDA 100%
Signature: FCEB30F0C7B26C9EB658A053A39423AB2CD4B5F5
FILE: 01. Hush Little Baby.flac
Size: 5315435 Hash: C475DA7815D5C76DAB9F5BFF184BA999 Accuracy: -m0
Conclusion: CDDA 92%
Signature: 5BB14F5191ADE5E5AB67E370D85F7AEA639F72F3

03.07.2018
12:03


Source

Скачать Benighted – Discography (2000-2017) (Lossless) торрент файлом бесплатно в хорошем качестве MP3 и Lossless.

Download the torrent file of group Benighted – Discography (2000-2017) (Lossless) for free in excellent quality Lossy (MP3 320 kbps (Stereo, High Quality), AAC) and Lossless (WAVE, FLAC).

Leave a Reply

Your email address will not be published. Required fields are marked *