Категория: Музыка
Год: 2018
Стиль: Death Metal
Страна: Швеция
Формат: FLAC
Размер: 335.65 MB
Раздал: Metalhead 97979   
Оценка: Demonical – Chaos Manifesto (Lossless)

5/5 Голоса: 2

Добавлено: 24/05/2018 01:00:47
Файлов: 17
Скачан: 6 (Взят – 19) 4 2
Сид был: 24/05/2018 03:09:48
Модерация: Проверен пользователем Metalhead 97979
Описание:
Audio codec / Аудио кодек: FLAC
Rip type / Тип рипа: image+.cue
Audio bitrate / Битрейт аудио: 1100 kbps
Scans from the disc / Сканы с диска: Yes
Length / Продолжительность: 00:40:00

Tracks / Треклист:

01. A Void Most Obscure
02. Towards Greater Gods
03. Sung To Possess
04. Valkommen Undergang
05. Torture Parade
06. From Nothing
07. Unfold Thy Darkness
08. Death Unfaithful
09. Nightbringer

  EAC Log:Exact Audio Copy V1.3 from 2. September 2016

Отчёт EAC об извлечении, выполненном 17. мая 2018, 12:49

Demonical / Chaos Manifesto

Дисковод: PIONEER DVD-RW DVR-221L Adapter: 1 ID: 0

Режим чтения : Достоверность
Использование точного потока : Да
Отключение кэша аудио : Да
Использование указателей C2 : Нет

Коррекция смещения при чтении : 6
Способность читать области Lead-in и Lead-out : Нет
Заполнение пропущенных сэмплов тишиной : Да
Удаление блоков с тишиной в начале и конце : Нет
При вычислениях CRC использовались нулевые сэмплы : Да
Интерфейс : Встроенный Win32-интерфейс для Win NT/2000

Выходной формат : Пользовательский кодировщик
Выбранный битрейт : 1024 kBit/s
Качество : Высокий
Добавление ID3-тега : Нет
Утилита сжатия : C:Program Files (x86)Exact Audio CopyFLACFLAC.EXE
Дополнительные параметры : -6 -V -T “ARTIST=%artist%” -T “TITLE=%title%” -T “ALBUM=%albumtitle%” -T “DATE=%year%” -T “TRACKNUMBER=%tracknr%” -T “GENRE=%genre%” -T “COMMENT=%comment%” -T “BAND=%albuminterpret%” -T “ALBUMARTIST=%albuminterpret%” -T “COMPOSER=%composer%” %haslyrics%–tag-from-file=LYRICS=”%lyricsfile%”%haslyrics% -T “DISCNUMBER=%cdnumber%” -T “TOTALDISCS=%totalcds%” -T “TOTALTRACKS=%numtracks%” %hascover%–picture=”%coverfile%”%hascover% %source% -o %dest%

TOC извлечённого CD

Трек | Старт | Длительность | Начальный сектор | Конечный сектор
———————————————————————
1 | 0:00.00 | 3:53.25 | 0 | 17499
2 | 3:53.25 | 4:27.60 | 17500 | 37584
3 | 8:21.10 | 3:15.53 | 37585 | 52262
4 | 11:36.63 | 5:49.34 | 52263 | 78471
5 | 17:26.22 | 3:23.30 | 78472 | 93726
6 | 20:49.52 | 6:00.15 | 93727 | 120741
7 | 26:49.67 | 4:05.20 | 120742 | 139136
8 | 30:55.12 | 3:57.21 | 139137 | 156932
9 | 34:52.33 | 5:07.19 | 156933 | 179976

Характеристики диапазона извлечения и сообщения об ошибках

Выбранный диапазон

Имя файла D:EACzvbmxfDemonical-2018-Chaos ManifestoDemonical – Chaos Manifesto.wav

Пиковый уровень 96.8 %
Скорость извлечения 4.1 X
Качество диапазона 99.9 %
CRC теста 65330E05
CRC копии 65330E05
Копирование… OK

Ошибок не произошло

AccurateRip: сводка

Трек 1 отсутствует в базе данных
Трек 2 отсутствует в базе данных
Трек 3 отсутствует в базе данных
Трек 4 отсутствует в базе данных
Трек 5 отсутствует в базе данных
Трек 6 отсутствует в базе данных
Трек 7 отсутствует в базе данных
Трек 8 отсутствует в базе данных
Трек 9 отсутствует в базе данных

Ни одного трека нет в базе AccurateRip

Конец отчёта

—- CUETools DB Plugin V2.1.6

(CTDB TOCID: D5MvgpyDrLwkadYTTwE5F44MX74-) found
Submit result: D5MvgpyDrLwkadYTTwE5F44MX74- has been confirmed
Track | CTDB Status
1 | (4/4) Accurately ripped
2 | (4/4) Accurately ripped
3 | (4/4) Accurately ripped
4 | (4/4) Accurately ripped
5 | (4/4) Accurately ripped
6 | (4/4) Accurately ripped
7 | (4/4) Accurately ripped
8 | (4/4) Accurately ripped
9 | (4/4) Accurately ripped

==== Контрольная сумма отчёта A3A3FCC853F2D50B319E164D1B7E0DC35C3EC610499E0F299F883DD351D7EB3F ====

  auCDtect Log:———————–

DON’T MODIFY THIS FILE

———————–

PERFORMER: auCDtect Task Manager, ver. 1.6.0 RC1 build 1.6.0.1
Copyright (c) 2008-2010 y-soft. All rights reserved
http://y-soft.org

ANALYZER: auCDtect: CD records authenticity detector, version 0.8.2
Copyright (c) 2004 Oleg Berngardt. All rights reserved.
Copyright (c) 2004 Alexander Djourik. All rights reserved.

FILE: Demonical – Chaos Manifesto.flac
Size: 329923471 Hash: 5DB7BE0F69F9D63F088B09BDE41420D7 Accuracy: -m0
Conclusion: CDDA 100%
Signature: F8AF3010F01747F60FAC453F66F5676FF15B5B7A

24.05.2018
03:14


Source

Скачать Demonical – Chaos Manifesto (Lossless) торрент файлом бесплатно в хорошем качестве MP3 и Lossless.

Download the torrent file of group Demonical – Chaos Manifesto (Lossless) for free in excellent quality Lossy (MP3 320 kbps (Stereo, High Quality), AAC) and Lossless (WAVE, FLAC).

Leave a Reply

Your email address will not be published. Required fields are marked *