Категория: Музыка
Год: 2018
Стиль: Death Metal
Страна: Швеция
Формат: FLAC
Размер: 234.64 MB
Раздал: Metalhead 97979   
Оценка: Gluttony — Cult Of The Unborn (Lossless)

4.99/5 Голоса: 7

Добавлено: 28/06/2018 22:47:43
Файлов: 18
Скачан: 43 (Взят — 83) 4 1
Сид был: 03/07/2018 12:11:54
Модерация: Проверен пользователем Metalhead 97979
Описание:
Audio codec / Аудио кодек: FLAC
Rip type / Тип рипа: image+.cue
Audio bitrate / Битрейт аудио: 966 kbps
Scans from the disc / Сканы с диска: Yes
Length / Продолжительность: 00:30:44

Tracks / Треклист:

01. Death Is Only The Beginning
02. Gluttony
03. Torn From The Grave
04. Church Of Rot
05. Cult Of The Unborn
06. Chalice Of Maggots
07. Bane Of The Carrion Lord
08. Divine Dismemberment
09. The Casket Master

  EAC Log:Exact Audio Copy V1.3 from 2. September 2016

Отчёт EAC об извлечении, выполненном 22. июня 2018, 18:49

Gluttony / Cult Of The Unborn

Дисковод: PIONEER DVD-RW DVR-221L Adapter: 1 ID: 0

Режим чтения : Достоверность
Использование точного потока : Да
Отключение кэша аудио : Да
Использование указателей C2 : Нет

Коррекция смещения при чтении : 6
Способность читать области Lead-in и Lead-out : Нет
Заполнение пропущенных сэмплов тишиной : Да
Удаление блоков с тишиной в начале и конце : Нет
При вычислениях CRC использовались нулевые сэмплы : Да
Интерфейс : Встроенный Win32-интерфейс для Win NT/2000

Выходной формат : Пользовательский кодировщик
Выбранный битрейт : 1024 kBit/s
Качество : Высокий
Добавление ID3-тега : Нет
Утилита сжатия : C:Program Files (x86)Exact Audio CopyFLACFLAC.EXE
Дополнительные параметры : -6 -V -T «ARTIST=%artist%» -T «TITLE=%title%» -T «ALBUM=%albumtitle%» -T «DATE=%year%» -T «TRACKNUMBER=%tracknr%» -T «GENRE=%genre%» -T «COMMENT=%comment%» -T «BAND=%albuminterpret%» -T «ALBUMARTIST=%albuminterpret%» -T «COMPOSER=%composer%» %haslyrics%—tag-from-file=LYRICS=»%lyricsfile%»%haslyrics% -T «DISCNUMBER=%cdnumber%» -T «TOTALDISCS=%totalcds%» -T «TOTALTRACKS=%numtracks%» %hascover%—picture=»%coverfile%»%hascover% %source% -o %dest%

TOC извлечённого CD

Трек | Старт | Длительность | Начальный сектор | Конечный сектор
———————————————————————
1 | 0:00.00 | 3:32.41 | 0 | 15940
2 | 3:32.41 | 2:57.40 | 15941 | 29255
3 | 6:30.06 | 3:08.72 | 29256 | 43427
4 | 9:39.03 | 2:53.59 | 43428 | 56461
5 | 12:32.62 | 4:07.33 | 56462 | 75019
6 | 16:40.20 | 3:13.23 | 75020 | 89517
7 | 19:53.43 | 3:11.16 | 89518 | 103858
8 | 23:04.59 | 2:53.16 | 103859 | 116849
9 | 25:58.00 | 4:46.34 | 116850 | 138333

Характеристики диапазона извлечения и сообщения об ошибках

Выбранный диапазон

Имя файла D:EACzvbmxfGluttony-2018-Cult Of The UnbornGluttony — Cult Of The Unborn.wav

Пиковый уровень 95.1 %
Скорость извлечения 3.9 X
Качество диапазона 100.0 %
CRC теста DF9F01D7
CRC копии DF9F01D7
Копирование… OK

Ошибок не произошло

AccurateRip: сводка

Трек 1 отсутствует в базе данных
Трек 2 отсутствует в базе данных
Трек 3 отсутствует в базе данных
Трек 4 отсутствует в базе данных
Трек 5 отсутствует в базе данных
Трек 6 отсутствует в базе данных
Трек 7 отсутствует в базе данных
Трек 8 отсутствует в базе данных
Трек 9 отсутствует в базе данных

Ни одного трека нет в базе AccurateRip

Конец отчёта

—- CUETools DB Plugin V2.1.6

(CTDB TOCID: JsE6drjlQ_X5qkIvIHOOyxSTmjU-) found
Submit result: JsE6drjlQ_X5qkIvIHOOyxSTmjU- has been confirmed
Track | CTDB Status
1 | (1/1) Accurately ripped
2 | (1/1) Accurately ripped
3 | (1/1) Accurately ripped
4 | (1/1) Accurately ripped
5 | (1/1) Accurately ripped
6 | (1/1) Accurately ripped
7 | (1/1) Accurately ripped
8 | (1/1) Accurately ripped
9 | (1/1) Accurately ripped

==== Контрольная сумма отчёта 73441791F77E8CEC3D61855A94CA12421D9354B89FDD2E8D328F543AFB6EFBE0 ====

  auCDtect Log:————————

DON’T MODIFY THIS FILE

————————

PERFORMER: auCDtect Task Manager, ver. 1.6.0 RC1 build 1.6.0.1
Copyright (c) 2008-2010 y-soft. All rights reserved
http://y-soft.org

ANALYZER: auCDtect: CD records authenticity detector, version 0.8.2
Copyright (c) 2004 Oleg Berngardt. All rights reserved.
Copyright (c) 2004 Alexander Djourik. All rights reserved.

FILE: Gluttony — Cult Of The Unborn.flac
Size: 222720885 Hash: B9C9516D5CB6700178492B4AF1441D97 Accuracy: -m0
Conclusion: CDDA 100%
Signature: 76DF9E1C4127182485A41051DA52FB8D42280611

03.07.2018
12:18


Source

Скачать Gluttony — Cult Of The Unborn (Lossless) торрент файлом бесплатно в хорошем качестве MP3 и Lossless.

Download the torrent file of group Gluttony — Cult Of The Unborn (Lossless) for free in excellent quality Lossy (MP3 320 kbps (Stereo, High Quality), AAC) and Lossless (WAVE, FLAC).

Добавить комментарий

Ваш e-mail не будет опубликован. Обязательные поля помечены *