Категория: Музыка
Год: 2017
Стиль: Death Metal
Страна: Германия
Формат: FLAC
Размер: 242.38 MB
Раздал: Metalhead 97979   
Оценка: Putrid Torso — Grave Desecrating Ritual (Lossless)

5/5 Голоса: 2

Добавлено: 14/05/2018 03:46:35
Файлов: 16
Скачан: 0 (Взят — 13) 0 5
Сид был: 14/05/2018 04:17:22
Модерация: Проверен пользователем Metalhead 97979
Описание:

Audio codec / Аудио кодек: FLAC
Rip type / Тип рипа: image+.cue
Audio bitrate / Битрейт аудио: 1063 kbps
Scans from the disc / Сканы с диска: Yes
Length / Продолжительность: 00:27:22

Tracks / Треклист:

01. Intro
02. The Ghouls Of The Graveyard
03. A Morbid Rising
04. The Boneless Crawlers
05. Collector Of Zombies
06. A Crypt To Keep
07. Towards The Cemetary
08. Midnight Mausoleum

  EAC Log:Exact Audio Copy V1.3 from 2. September 2016

Отчёт EAC об извлечении, выполненном 8. мая 2018, 20:02

Putrid Torso / Grave Desecrating Ritual

Дисковод: PIONEER DVD-RW DVR-221L Adapter: 1 ID: 0

Режим чтения : Достоверность
Использование точного потока : Да
Отключение кэша аудио : Да
Использование указателей C2 : Нет

Коррекция смещения при чтении : 6
Способность читать области Lead-in и Lead-out : Нет
Заполнение пропущенных сэмплов тишиной : Да
Удаление блоков с тишиной в начале и конце : Нет
При вычислениях CRC использовались нулевые сэмплы : Да
Интерфейс : Встроенный Win32-интерфейс для Win NT/2000

Выходной формат : Пользовательский кодировщик
Выбранный битрейт : 1024 kBit/s
Качество : Высокий
Добавление ID3-тега : Нет
Утилита сжатия : C:Program Files (x86)Exact Audio CopyFLACFLAC.EXE
Дополнительные параметры : -6 -V -T «ARTIST=%artist%» -T «TITLE=%title%» -T «ALBUM=%albumtitle%» -T «DATE=%year%» -T «TRACKNUMBER=%tracknr%» -T «GENRE=%genre%» -T «COMMENT=%comment%» -T «BAND=%albuminterpret%» -T «ALBUMARTIST=%albuminterpret%» -T «COMPOSER=%composer%» %haslyrics%—tag-from-file=LYRICS=»%lyricsfile%»%haslyrics% -T «DISCNUMBER=%cdnumber%» -T «TOTALDISCS=%totalcds%» -T «TOTALTRACKS=%numtracks%» %hascover%—picture=»%coverfile%»%hascover% %source% -o %dest%

TOC извлечённого CD

Трек | Старт | Длительность | Начальный сектор | Конечный сектор
———————————————————————
1 | 0:00.00 | 1:24.54 | 0 | 6353
2 | 1:24.54 | 3:05.57 | 6354 | 20285
3 | 4:30.36 | 3:51.66 | 20286 | 37676
4 | 8:22.27 | 4:13.10 | 37677 | 56661
5 | 12:35.37 | 3:22.63 | 56662 | 71874
6 | 15:58.25 | 3:31.26 | 71875 | 87725
7 | 19:29.51 | 3:12.09 | 87726 | 102134
8 | 22:41.60 | 4:40.36 | 102135 | 123170

Характеристики диапазона извлечения и сообщения об ошибках

Выбранный диапазон

Имя файла D:EACzvbmxfPutrid Torso-2017-Grave Desecrating RitualPutrid Torso — Grave Desecrating Ritual.wav

Пиковый уровень 99.0 %
Скорость извлечения 3.8 X
Качество диапазона 100.0 %
CRC теста 2F566527
CRC копии 2F566527
Копирование… OK

Ошибок не произошло

AccurateRip: сводка

Трек 1 отсутствует в базе данных
Трек 2 отсутствует в базе данных
Трек 3 отсутствует в базе данных
Трек 4 отсутствует в базе данных
Трек 5 отсутствует в базе данных
Трек 6 отсутствует в базе данных
Трек 7 отсутствует в базе данных
Трек 8 отсутствует в базе данных

Ни одного трека нет в базе AccurateRip

Конец отчёта

—- CUETools DB Plugin V2.1.6

(CTDB TOCID: 0YNCdT5viF7vI_DbLFxRxEuRLHM-) disk not present in database
Submit result: 0YNCdT5viF7vI_DbLFxRxEuRLHM- has been uploaded

==== Контрольная сумма отчёта B85A12E980A284271290B1A043F7531FD938BC7C423B6779CE253049394037BA ====

  auCDtect Log:————————

DON’T MODIFY THIS FILE

————————

PERFORMER: auCDtect Task Manager, ver. 1.6.0 RC1 build 1.6.0.1
Copyright (c) 2008-2010 y-soft. All rights reserved
http://y-soft.org

ANALYZER: auCDtect: CD records authenticity detector, version 0.8.2
Copyright (c) 2004 Oleg Berngardt. All rights reserved.
Copyright (c) 2004 Alexander Djourik. All rights reserved.

FILE: Putrid Torso — Grave Desecrating Ritual.flac
Size: 218242857 Hash: 55256237AFC4D8CFBCCC09E80505947C Accuracy: -m0
Conclusion: CDDA 100%
Signature: 3A3F9DD9088E0AFFDA4693C6F62C1B2A770B84C5

14.05.2018
07:57


Source

Скачать Putrid Torso — Grave Desecrating Ritual (Lossless) торрент файлом бесплатно в хорошем качестве MP3 и Lossless.

Добавить комментарий

Ваш e-mail не будет опубликован. Обязательные поля помечены *