Категория: Музыка
Год: 2016
Стиль: Death Metal
Страна: Германия
Формат: FLAC
Размер: 286.35 MB
Раздал: Metalhead 97979   
Оценка: Scalpture — Panzerdoktrin (Lossless)

4.98/5 Голоса: 5

Добавлено: 10/05/2018 19:10:42
Файлов: 16
Скачан: 4 (Взят — 8) 4 1
Сид был: 10/05/2018 20:54:25
Модерация: Проверен пользователем Metalhead 97979
Описание:

Audio codec / Аудио кодек: FLAC
Rip type / Тип рипа: image+.cue
Audio bitrate / Битрейт аудио: 1080 kbps
Scans from the disc / Сканы с диска: Yes
Length / Продолжительность: 00:34:13

Tracks / Треклист:

01. Forward March…
02. …Panzer Hooray!
03. Lead From Ahead
04. Dam Busters
05. Flattened Horizons (Pounding Howitzers)
06. No Rest, No Sleep, No Peace
07. Incursion
08. Not A Single Step Back
09. Embrace The Afterglow

  EAC Log:Exact Audio Copy V1.3 from 2. September 2016

Отчёт EAC об извлечении, выполненном 8. мая 2018, 21:23

Scalpture / Panzerdoktrin

Дисковод: PIONEER DVD-RW DVR-221L Adapter: 1 ID: 0

Режим чтения : Достоверность
Использование точного потока : Да
Отключение кэша аудио : Да
Использование указателей C2 : Нет

Коррекция смещения при чтении : 6
Способность читать области Lead-in и Lead-out : Нет
Заполнение пропущенных сэмплов тишиной : Да
Удаление блоков с тишиной в начале и конце : Нет
При вычислениях CRC использовались нулевые сэмплы : Да
Интерфейс : Встроенный Win32-интерфейс для Win NT/2000

Выходной формат : Пользовательский кодировщик
Выбранный битрейт : 1024 kBit/s
Качество : Высокий
Добавление ID3-тега : Нет
Утилита сжатия : C:Program Files (x86)Exact Audio CopyFLACFLAC.EXE
Дополнительные параметры : -6 -V -T «ARTIST=%artist%» -T «TITLE=%title%» -T «ALBUM=%albumtitle%» -T «DATE=%year%» -T «TRACKNUMBER=%tracknr%» -T «GENRE=%genre%» -T «COMMENT=%comment%» -T «BAND=%albuminterpret%» -T «ALBUMARTIST=%albuminterpret%» -T «COMPOSER=%composer%» %haslyrics%—tag-from-file=LYRICS=»%lyricsfile%»%haslyrics% -T «DISCNUMBER=%cdnumber%» -T «TOTALDISCS=%totalcds%» -T «TOTALTRACKS=%numtracks%» %hascover%—picture=»%coverfile%»%hascover% %source% -o %dest%

TOC извлечённого CD

Трек | Старт | Длительность | Начальный сектор | Конечный сектор
———————————————————————
1 | 0:00.00 | 1:19.51 | 0 | 5975
2 | 1:19.51 | 3:21.30 | 5976 | 21080
3 | 4:41.06 | 3:53.62 | 21081 | 38617
4 | 8:34.68 | 4:03.23 | 38618 | 56865
5 | 12:38.16 | 4:36.22 | 56866 | 77587
6 | 17:14.38 | 3:56.33 | 77588 | 95320
7 | 21:10.71 | 4:09.55 | 95321 | 114050
8 | 25:20.51 | 3:08.11 | 114051 | 128161
9 | 28:28.62 | 5:44.12 | 128162 | 153973

Характеристики диапазона извлечения и сообщения об ошибках

Выбранный диапазон

Имя файла D:EACzvbmxfScalpture-2016-PanzerdoktrinScalpture — Panzerdoktrin.wav

Пиковый уровень 100.0 %
Скорость извлечения 4.0 X
Качество диапазона 100.0 %
CRC теста 108F8CE9
CRC копии 108F8CE9
Копирование… OK

Ошибок не произошло

AccurateRip: сводка

Трек 1 отсутствует в базе данных
Трек 2 отсутствует в базе данных
Трек 3 отсутствует в базе данных
Трек 4 отсутствует в базе данных
Трек 5 отсутствует в базе данных
Трек 6 отсутствует в базе данных
Трек 7 отсутствует в базе данных
Трек 8 отсутствует в базе данных
Трек 9 отсутствует в базе данных

Ни одного трека нет в базе AccurateRip

Конец отчёта

—- CUETools DB Plugin V2.1.6

(CTDB TOCID: M._eE8MZ3UCatauf8IXfqEXs2J0-) found
Submit result: M._eE8MZ3UCatauf8IXfqEXs2J0- has been confirmed
Track | CTDB Status
1 | (5/5) Accurately ripped
2 | (5/5) Accurately ripped
3 | (5/5) Accurately ripped
4 | (5/5) Accurately ripped
5 | (5/5) Accurately ripped
6 | (5/5) Accurately ripped
7 | (5/5) Accurately ripped
8 | (5/5) Accurately ripped
9 | (5/5) Accurately ripped

==== Контрольная сумма отчёта B1973D14CED99003F0617713709EDB1AF6A5E59A2B7A3C794266EFF32B5F5D69 ====

  auCDtect Log:————————

DON’T MODIFY THIS FILE

————————

PERFORMER: auCDtect Task Manager, ver. 1.6.0 RC1 build 1.6.0.1
Copyright (c) 2008-2010 y-soft. All rights reserved
http://y-soft.org

ANALYZER: auCDtect: CD records authenticity detector, version 0.8.2
Copyright (c) 2004 Oleg Berngardt. All rights reserved.
Copyright (c) 2004 Alexander Djourik. All rights reserved.

FILE: Scalpture — Panzerdoktrin.flac
Size: 277243859 Hash: 0156D7C51F30336E8EFF5630B019ECE7 Accuracy: -m0
Conclusion: CDDA 100%
Signature: 4974910E06E8339B4A319B85C9D09ADDA6B14BCE

10.05.2018
21:01


Source

Скачать Scalpture — Panzerdoktrin (Lossless) торрент файлом бесплатно в хорошем качестве MP3 и Lossless.

Добавить комментарий

Ваш e-mail не будет опубликован. Обязательные поля помечены *