Категория: Музыка
Стиль: Instrumental
Дополнительный: Sympho Power Metal
Страна: Финляндия
Формат: FLAC
Размер: 320.01 MB
Раздал: jared_wanted   
Оценка: Tiluland – Discography (2011) (Lossless)

4.98/5 Голоса: 8

Добавлено: 23/03/2017 20:03:57
Файлов: 20
Скачан: 86 (Взят – 161) 2 0
Сид был: 01/05/2018 21:59:32
Модерация: Проверен пользователем jared_wanted
Описание:
Albums / Альбомы:
   2011Axes Of The Universe

Audio Codec / Аудио кодек: FLAC (*.flac)
Rip Type / Тип рипа: image+log
Audio Bitrate / Битрейт аудио: CBR 991 kbps, 44.1 kbps, 16 bit
Scans From The Disc / Сканы с диска: no

Length / Продолжительность: 00:37:52
Tracklist / Треклист:
01. Prologue (To The Kings)
02. Tilu Of The Kings
03. March Of Immortals
04. Heroes
05. Arctic Twilight
06. Warrior’s Anthem
07. Epic Tilu Fantasy, Part I: A Grand Tale
08. Epic Tilu Fantasy, Part II: Axes Of The Universe
09. Epic Tilu Fantasy, Part III: Kaamos

   EAC Log:
Exact Audio Copy V1.0 beta 3 from 29. August 2011

EAC extraction logfile from 3. February 2012, 21:08

Tiluland / Axes of the Universe

Used drive : PIONEER DVD-RW DVR-215D Adapter: 4 ID: 0

Read mode : Secure
Utilize accurate stream : Yes
Defeat audio cache : Yes
Make use of C2 pointers : No

Read offset correction : 48
Overread into Lead-In and Lead-Out : No
Fill up missing offset samples with silence : Yes
Delete leading and trailing silent blocks : No
Null samples used in CRC calculations : Yes
Used interface : Native Win32 interface for Win NT & 2000

Used output format : Internal WAV Routines
Sample format : 44.100 Hz; 16 Bit; Stereo

TOC of the extracted CD

Track | Start | Length | Start sector | End sector
———————————————————
1 | 0:00.00 | 1:22.27 | 0 | 6176
2 | 1:22.27 | 4:36.02 | 6177 | 26878
3 | 5:58.29 | 4:06.05 | 26879 | 45333
4 | 10:04.34 | 3:49.44 | 45334 | 62552
5 | 13:54.03 | 2:38.18 | 62553 | 74420
6 | 16:32.21 | 4:03.13 | 74421 | 92658
7 | 20:35.34 | 4:27.17 | 92659 | 112700
8 | 25:02.51 | 4:33.38 | 112701 | 133213
9 | 29:36.14 | 8:16.24 | 133214 | 170437

Range status and errors

Selected range

Filename D:CompressedTiluland – Axes of the Universe.wav

Peak level 97.7 %
Extraction speed 6.9 X
Range quality 99.9 %
Test CRC 171B4F11
Copy CRC 171B4F11
Copy OK

No errors occurred

AccurateRip summary

Track 1 not present in database
Track 2 not present in database
Track 3 not present in database
Track 4 not present in database
Track 5 not present in database
Track 6 not present in database
Track 7 not present in database
Track 8 not present in database
Track 9 not present in database

None of the tracks are present in the AccurateRip database

End of status report

   Cuesheet:
REM GENRE “Power Metal”
REM DATE 2011
REM DISCID 7808E009
REM COMMENT “ExactAudioCopy v1.0b3”
PERFORMER “Tiluland”
TITLE “Axes Of The Universe”
FILE “Tiluland – Axes Of The Universe.flac” WAVE
TRACK 01 AUDIO
TITLE “Prologue (To The Kings)”
PERFORMER “Tiluland”
INDEX 01 00:00:00
TRACK 02 AUDIO
TITLE “Tilu Of The Kings”
PERFORMER “Tiluland”
INDEX 01 01:22:27
TRACK 03 AUDIO
TITLE “March Of Immortals”
PERFORMER “Tiluland”
INDEX 01 05:58:29
TRACK 04 AUDIO
TITLE “Heroes”
PERFORMER “Tiluland”
INDEX 01 10:04:34
TRACK 05 AUDIO
TITLE “Arctic Twilight”
PERFORMER “Tiluland”
INDEX 01 13:54:03
TRACK 06 AUDIO
TITLE “Warrior’s Anthem”
PERFORMER “Tiluland”
INDEX 00 16:29:48
INDEX 01 16:32:21
TRACK 07 AUDIO
TITLE “Epic Tilu Fantasy / Part I: A Grand Tale”
PERFORMER “Tiluland”
INDEX 00 20:32:02
INDEX 01 20:35:34
TRACK 08 AUDIO
TITLE “Epic Tilu Fantasy / Part II: Axes Of The Universe”
PERFORMER “Tiluland”
INDEX 01 25:02:51
TRACK 09 AUDIO
TITLE “Epic Tilu Fantasy / Part III: Kaamos”
PERFORMER “Tiluland”
INDEX 01 29:36:14
   auCDtect Log:
———————–

DON’T MODIFY THIS FILE

———————–

PERFORMER: auCDtect Task Manager, ver. 1.5.1RC6 build 1.5.1.7
Copyright (c) 2008-2010 y-soft. All rights reserved
http://y-soft.org

ANALYZER: auCDtect: CD records authenticity detector, version 0.8.2
Copyright (c) 2004 Oleg Berngardt. All rights reserved.
Copyright (c) 2004 Alexander Djourik. All rights reserved.

FILE: Tiluland – Axes of the Universe.flac
Size: 281730478 Hash: 128028F2FE00825B85469BE94BEDD72B Accuracy: -m0
Conclusion: CDDA 100%
Signature: 2867DE6C0A16176C30C9058FCC22C3811D98622F

   Spectral Analysis:

   2011The Torment Of The Sun (Single)


Audio Codec / Аудио кодек: FLAC (*.flac)
Rip Type / Тип рипа: tracks
Audio Bitrate / Битрейт аудио: CBR 1004-1011 kbps, 44.1 kbps, 16 bit
Scans From The Disc / Сканы с диска: no

Length / Продолжительность: 00:06:31
Tracklist / Треклист:
01. The Torment Of The Sun
02. The Torment Of The Sun (No Solos)

   auCDtect Log:
———————–

DON’T MODIFY THIS FILE

———————–

PERFORMER: auCDtect Task Manager, ver. 1.5.1RC6 build 1.5.1.7
Copyright (c) 2008-2010 y-soft. All rights reserved
http://y-soft.org

ANALYZER: options:

FILE: 02. The Torment Of The Sun (No Solos).flac
Size: 24621670 Hash: 9F0DB7A81CC92BE77551F4BA4962560C Accuracy: -m0
Conclusion: CDDA 100%
Signature: BA7C0388891114BDF9CC34D8FF8782BBCBD1E3ED
FILE: 01. The Torment Of The Sun.flac
Size: 24781667 Hash: 07FB56B1A541AEB2D8128EDB3182686B Accuracy: -m0
Conclusion: CDDA 100%
Signature: 774666F8454693FAACE9EAB8741C0E557D5AE649

   Spectral Analysis:

   About Band:
ArweGuitars, Arrangements
GimiKeyboards, Arrangements

Guest/Session Members:
Matias KupiainenGuitars
Mikko H?rkinKeyboards
Theodore ZirasGuitars
Janne KarhunenGuitars
Esa ForsKeyboards

01.05.2018
22:16


Source

Скачать Tiluland – Discography (2011) (Lossless) торрент файлом бесплатно в хорошем качестве MP3 и Lossless.

Leave a Reply

Your email address will not be published. Required fields are marked *